ls-novinky.forumczech.com
 
PříjemPříjem  FAQFAQ  Pravidla fóra!Pravidla fóra!  RegistraceRegistrace  PřihlášeníPřihlášení  

Share | 
 

 veľkosti máp

Zobrazit předchozí téma Zobrazit následující téma Goto down 
AutorZpráva
deno



Počet příspěvků : 9
Registrován : 18. 07. 11

PříspěvekPředmět: veľkosti máp   Tue Aug 07, 2012 7:40 am

zajujimalo by ma že v psolednej dobe su niektoré mapy ktore majul len zo 80mb max okolo 100mb a pritom su to velke naročne mapy tak yb am zajujimalo ze čo za tym je ?
Návrat nahoru Goto down
Zohan
V.I.P.
V.I.P.


Počet příspěvků : 413
Registrován : 12. 07. 11

PříspěvekPředmět: Re: veľkosti máp   Tue Aug 07, 2012 10:52 am

Lidé se to naučili lépe kompresovat. (můj laický názor)
Více o tom ví "Jindar-cz-"
Mě docela štvou ty mapy, kde se mi na PDA nezobrazí hned celá, takže nevím ani jak je veliká. Ty jsou spíše pro MP.
Návrat nahoru Goto down
MaňaSS
V.I.P.
V.I.P.


Počet příspěvků : 468
Registrován : 12. 07. 11

PříspěvekPředmět: Re: veľkosti máp   Tue Aug 07, 2012 2:21 pm

Všechno to je o textůrách a o tom jestli tam nechávají i3d modeli...

Z posledních asi 5 map co jsem hrál tak jsem PDA nepoužil snad ani jednou tak asi tak...

// Nevím jak komprese třeba na ZIP funguje...

[size=150]1. Série[/size]

média info --

    General
    Complete name : Útěk z Vězení S1\Útěk z Vězení 010-Kejkle.avi
    Format : AVI
    Format/Info : Audio Video Interleave
    File size : 350 MiB
    Duration : 42mn 12s
    Overall bit rate mode : Variable
    Overall bit rate : 1 160 Kbps
    Writing application : Nandub v1.0rc2
    Writing library : Nandub build 1852/release
    Video #0
    ID : 0
    Format : MPEG-4 Visual
    Format profile : Advanced Simple@L5
    Format settings, BVOP : 1
    Format settings, QPel : No
    Format settings, GMC : No warppoints
    Format settings, Matrix : Default (H.263)
    Muxing mode : Packed bitstream
    Codec ID : XVID
    Codec ID/Hint : XviD
    Duration : 42mn 12s
    Bit rate : 1 015 Kbps
    Width : 640 pixels
    Height : 352 pixels
    Display aspect ratio : 16:9
    Frame rate : 25.000 fps
    Color space : YUV
    Chroma subsampling : 4:2:0
    Bit depth : 8 bits
    Scan type : Progressive
    Compression mode : Lossy
    Bits/(Pixel*Frame) : 0.180
    Stream size : 306 MiB (87%)
    Writing library : XviD 1.0.3 (UTC 2004-12-20)
    Audio #1
    ID : 1
    Format : MPEG Audio
    Format version : Version 1
    Format profile : Layer 3
    Codec ID : 55
    Codec ID/Hint : MP3
    Duration : 42mn 12s
    Bit rate mode : Variable
    Bit rate : 135 Kbps
    Channel(s) : 2 channels
    Sampling rate : 48.0 KHz
    Compression mode : Lossy
    Stream size : 40.0 MiB (11%)
    Alignment : Aligned on interleaves
    Interleave, duration : 24 ms (0.60 video frame)
    Interleave, preload duration : 133 ms
    Writing library : LAME3.97a
    Encoding settings : -m s -V 0 -q 3 -lowpass 17.5 --abr 135



)..(
WebShare
kód:
Návrat nahoru Goto down
http://www.farmweb.cz/index.php?page=gallery_rozcesti&zobraz
Sponsored content




PříspěvekPředmět: Re: veľkosti máp   Today at 8:51 am

Návrat nahoru Goto down
 
veľkosti máp
Zobrazit předchozí téma Zobrazit následující téma Návrat nahoru 
Strana 1 z 1

Povolení tohoto fóra:Nemůžete odpovídat na témata v tomto fóru
ls-novinky.forumczech.com :: Landwirtschafts Simulator 2011 :: Pokec (LS11)-
Přejdi na: